WK綜合論壇, WK综合论坛

查看:122 回復:1 發表於 2021-7-22 05:02:13
本主題由 212love 於 7 天前 解除高亮
累計簽到:2133 天
連續簽到:1 天
發表於 2021-7-21 11:51:31 | 顯示全部樓層 |閱讀模式
VIP精品區,資源無限好賺金任務區,輕松賺金幣
加入VIP,享受高級特權宣傳賺金又升級,超級棒

我沒談完的那場戀愛.Between.Us., 2021.[MKV / 10.84G] 國語 2160p [複製鏈接]

影視分享
分類: 電影
題材: 愛情 
地區: 中港台 
語言: 國語 
格式: MKV 
年份: 2021
資源: BT资源
6 N! ^7 H; Q3 {
; h, o2 R3 `, N$ ], Z! M' A0 \
◎译  名 我没谈完的那场恋爱 / 不说再见
* ?. u4 P% O5 P) ]8 A5 y. u◎年  代 20215 t5 ^* S: K( A) {
◎产  地 中国大陆
9 X8 C) T6 C& F5 F9 _◎类  别 爱情
7 ^0 u: A' e" B9 B7 F3 s. S◎语  言 汉语普通话
; M, r% V2 S6 b9 ?: m◎上映日期 2021-06-25(中国大陆)5 t: y: w+ O% z. W" i
◎IMDb链接 https://www.imdb.com/title/tt11662974/" t) E" o% }3 K3 h0 _3 _  }: t
◎豆瓣评分 4.0/10 (3177人评价)* b" q! W  H& Y; _' w
◎豆瓣链接 https://movie.douban.com/subject/35442444/
  n- q  ]6 A( L3 F◎片  长 97分钟8 U- Z8 c/ p4 Q; {; p9 ?) |
◎导  演 赵宇 Yu Zhao (id:1320916)9 Y9 {5 N% d+ b" |3 ^& p
◎编  剧 赵宇 Yu Zhao (id:1320916)* j  z# f3 h8 J# ^, x) I
      陈梦怡 (id:1457200)
. ]( @6 ~# q( Y0 y1 F5 I      李绚彦 Xuanyan Li (id:1335262)
( h8 n/ x: `  n0 E6 D6 M: T7 f# X◎演  员 于文文 Kelly Yu (id:1342252)* H- n* a- P2 O/ p* T; h
      宋宁峰 Ningfeng Song (id:1313368)  h- A9 r) a; r1 X
      刘琦 Mulligan liu (id:1398572)
9 I5 l( i& {0 H  x, ~3 Z      李博 Bo Li (id:1456618)
5 m% [  J$ k2 Y# K! j# ]0 H& ~      刘奕 Yi Liu (id:1335268)
, N% g8 P% E) g9 Z$ K      尹菲 Fei Yin (id:1350802)
$ l( e9 `& I6 ], I5 }. {1 u      曹力 Li Cao (id:1274714)
: V1 {! m& C, i8 R4 v      佘南南 Nannan She (id:1342105)8 N0 b8 ^7 J# k6 S1 b5 _
      殷成阳 Chengyang Yin (id:1408013)
: W3 }7 q6 H0 d1 w- F4 w( Y, b8 g" d
, A) v7 D+ V$ i4 g. [& y◎标  签 爱情 / 遗憾 / 音乐 / 梦想 / 国产 / 2021 / 渐冻症 / 怀旧
8 T, a& x1 _/ \" l
, y, `8 R+ g8 Q( g5 ~2 D/ `. T1 H& l◎简  介+ U& A. a8 o- D2 y/ j
  本片讲述了两个千差万别却同样迷茫的年轻音乐人,一个是多年打拼,事业毫无起色,又屡遭生活暴击的和声歌手珊妮,一个是身患重病,隐姓埋名等待死亡降临的前摇滚乐手董东,对生命感到绝望的二人在自我了断时相遇......自杀计划流产,他们的生活也因彼此的出现发生改变。
* V2 ~5 X+ S5 i6 i9 `另外一个时空的故事,从珊妮意外发现的一本1970年代的日记中铺陈开来,一段没有下文的悲伤爱情竟然在珊妮的努力下尘埃落定。跟音乐、爱情和人生有关的种种,让珊妮与董东的相遇愈发神奇。千丝万缕中,是否每一种爱都能开花结果? 他们能否找到继续爱这个世界的理由?5 {' O" t9 [# O

$ \& g, s6 P( H1 p8 Z! o" y  }General
* U2 L: J& j0 a2 ~' @$ E/ b2 Z6 ]Complete name : 我没谈完的那场恋爱.Between Us 2021 WEB-DL 2160p H265 [email protected]
2 Q8 p3 ~# Z7 _' J5 dFormat : MPEG-43 v1 v' R- r9 t" ~
Format profile : Base Media- g& y* N) _5 x* k9 |- Z7 Z
Codec ID : isom (isom/iso2/mp41): w9 @3 |/ O- V9 J; G/ i
File size : 10.8 GiB
; j0 \) n7 J' w" ?. VDuration : 1 h 37 min
- J1 P% g, H% {/ Z1 w0 C7 sOverall bit rate : 16.0 Mb/s
5 A0 f$ u2 N) |! ORecorded date : 2021-07-18T07:16:49.4348074+08:00& x9 \" H5 q1 @. ~4 w% e2 ~, \
Writing application : Lavf58.32.104
$ ]& t5 o  l6 S2 h  l& V& d4 M$ A6 D$ Y0 O: t7 e
Video
: I1 G0 z+ N: lID : 1
) y" m2 Q1 Y4 h( o: \6 I  x( T; ^: SFormat : HEVC
0 E7 w# `3 ^, e; }Format/Info : High Efficiency Video Coding
+ x0 P0 ~( ]2 |) |8 [+ u& PFormat profile : [email protected]@Main: ]- P4 _/ R9 _" v* I+ ?
Codec ID : hev1# G: q! ?, u5 ~: Q1 K9 V
Codec ID/Info : High Efficiency Video Coding0 S8 @2 H6 t) {; A2 \
Duration : 1 h 37 min: [# s6 G! ?/ h( X
Bit rate : 15.8 Mb/s& m- Y  @# a7 w% B* m4 C
Width : 3 840 pixels+ |3 y7 X  F: T  A. I, g
Height : 2 160 pixels( `* T& P/ z/ r8 V- ~' F0 G
Display aspect ratio : 16:9! l# B8 b) F- E/ d; a
Frame rate mode : Constant  t" o" ^6 T  [
Frame rate : 24.000 FPS, M3 q0 z% l) E, `
Color space : YUV
6 `! j1 O0 D# f- m4 L8 eChroma subsampling : 4:2:0
; D1 f# W( O% ~; K. L0 o! QBit depth : 8 bits5 r7 A7 P6 m" L- |( M
Bits/(Pixel*Frame) : 0.079
& z3 x4 e$ x  a$ `Stream size : 10.7 GiB (99%)8 I+ s, G# \0 ]& X; {/ l0 V: W
Codec configuration box : hvcC2 Q/ g0 s( S3 `: i
/ l& E% g7 f# s
Audio
, E; Q, }# m& v- B" RID : 2
& f1 T' O, A4 d: nFormat : AAC LC
: |4 [. p8 ]& T  _( SFormat/Info : Advanced Audio Codec Low Complexity
' B0 C+ x: c" {/ k/ W7 f8 }Codec ID : mp4a-40-2! p) q; q0 v' q% I0 d
Duration : 1 h 37 min
4 P5 k$ P/ ]3 t$ Z$ dBit rate mode : Constant
* s4 U% L# c+ T. y* JBit rate : 192 kb/s0 ?5 N$ M8 }! E; |# p3 o, b& D
Channel(s) : 2 channels# ]7 s; j; c2 U8 R6 j
Channel layout : L R. M+ |0 r' b0 I9 e7 W+ f, c5 V* h
Sampling rate : 44.1 kHz
$ F# K0 J; q; l9 y& AFrame rate : 43.066 FPS (1024 SPF)7 l4 u+ B9 L, _7 I3 ?7 i9 Z
Compression mode : Lossy; [7 Z  D8 \) n7 k7 l, @
Stream size : 132 MiB (1%)) }$ X; t3 @* J/ q
Default : Yes" B4 `# `: F8 ~% m- P2 {8 R! B% p
Alternate group : 1
4 r8 }5 W: L3 d. S9 ~
& [( o/ b& T0 `/ n4 q7 O* K0 d
, C/ \' v. F/ u1 b  _7 S; H

我沒談完的那場戀愛. MKV.torrent

31.82 KB, 下載次數: 23

累計簽到:71 天
連續簽到:71 天
發表於 2021-7-22 05:02:13 | 顯示全部樓層
VIP精品區,資源無限好賺金任務區,輕松賺金幣
加入VIP,享受高級特權宣傳賺金又升級,超級棒
本片講述了兩個千差萬別卻同樣迷茫的年輕音樂人跟音樂、愛情和人生有關的種種....耐人尋味 感謝樓主精采分享

回復樓主 親!! 下午好,中午養足了精神嗎?讓我們一起渡過下午茶時間,WK有您更精彩!

 分享同時學會感恩,一句感謝的話語,就是最大的支持!  歡迎交流討論
您需要登錄後才可以回帖 登錄 | 立即注册

本版積分規則

c重要聲明:本論壇是以即時上載言論的方式運作,WK論壇對所有言論的真實性、立場及版權等,不負任何法律責任。而一切言論只代表發佈者個人意見,並非本網站之立場,讀者及用戶務必自行判斷內容之真實性。 由於本論壇受到「即時上載言論」運作方式所規限,故不能完全監察所有言論,若讀者及用戶發現有內容出現「真實性、立場及版權」等問題,請聯絡我們:[email protected]論壇有權刪除任何言論(刪除前或不會作事先警告及通知)| SiteMap[網站地圖]

發表新帖 返回頂部