WK綜合論壇, WK综合论坛

查看:158 回復:3 發表於 2021-7-21 01:55:09
本主題由 212love 於 2021-7-23 09:25 解除高亮
累計簽到:2133 天
連續簽到:1 天
發表於 2021-7-20 19:39:34 | 顯示全部樓層 |閱讀模式
VIP精品區,資源無限好賺金任務區,輕松賺金幣
加入VIP,享受高級特權宣傳賺金又升級,超級棒

霧山 The.Foggy.Mountain., 2020.[MKV / 9.04G] 2160p [複製鏈接]

影視分享
分類: 電影
題材: 動作 
地區: 其它 
語言: 其他 
格式: MKV 
年份: 2020
資源: BT资源

; y; W5 D! @9 ~( o* y/ h# D# u
) R+ Y) N9 R" {, t" M◎译  名 雾山 / The Foggy Mountain
* @% o8 E/ O! N  s◎片  名 ??nh Mù S??ng( J6 r  I' i9 ^- f: t
◎年  代 2020" S, @% Y$ p: `
◎产  地 越南! ^" g8 U6 Z4 w) k$ ]# I) ^' g& Y
◎类  别 动作
* f$ L1 e2 L8 a1 Y/ i0 K◎语  言 越南语: s" l* [; n, r$ d
◎上映日期 2020-07-17(越南)
4 v/ \, ~% d* @' ^" m- ~◎IMDb链接 https://www.imdb.com/title/tt12719414/# P0 V6 N  C2 W5 p3 r
◎豆瓣链接 https://movie.douban.com/subject/35517350/
# G1 u# w  A6 }& e3 }6 ^◎演  员 石金龙 Thach Kim Long (id:1385500)4 X" C) e4 Q# _

' G$ S4 z3 H; d8 n7 v" W7 I( _7 f2 z6 x◎标  签 动作 / 越南 / 复仇 / 犯罪 / 东亚影视 / 2020s / 剧情 / 暴力1 F  J0 [$ ]% Z7 n8 m
0 `, j5 n; U$ ~
◎简  介
; d1 \7 p/ f& H8 Y7 }/ J) L. o9 p  因为妻子的意外身亡,皮(Phi)一位拳师,决定返回越南,为妻子报仇、血债血偿。在他越南家乡的村庄里,他不但确认了凶手是一个名叫巴劳的当地一霸,同时,还发现了隐藏在其背后的秘密。命运又一次让皮面临选择——是只身为妻子报仇?还是选择舍弃个人恩怨而保护家乡的村民?0 P' N9 O4 J7 V8 k6 V
% m( s) s. l5 D# N
General
' w1 Y+ e' o& b+ O, Q, b, HUnique ID : 140379598432573083448290117477100898416 (0x699C2091815BD8C954236243679B4870)
0 |" R( u$ x0 d( X4 KComplete name : 雾山[email protected]M.mkv
4 S* v; L/ w- b# _) x* sFormat : Matroska7 p5 p: a! C' t; V& E
Format version : Version 4
; ]9 S* x9 @: f" L, {File size : 9.04 GiB$ Q# x; r: Z6 D1 a. r+ _
Duration : 1 h 26 min
2 n. ]$ @/ J) b/ q2 H6 f$ ]Overall bit rate : 14.9 Mb/s
/ r. ^& m& j& f" jEncoded date : UTC 2021-07-07 11:56:25
6 o5 u3 f% ^" F' ?9 GWriting application : mkvmerge v40.0.0 ('Old Town Road + Pony') 64-bit
! g  O$ u3 k" J2 m9 lWriting library : libebml v1.3.9 + libmatroska v1.5.2* w! \$ E" S8 E* e; F) \+ Q' v7 q/ y

$ `( g" j/ W/ w! P4 ^9 jVideo0 O- x! s6 P8 Y6 D
ID : 3
1 E* I% s: W% w0 }$ CFormat : HEVC" W* i+ i' Z1 K3 `
Format/Info : High Efficiency Video Coding
. s! |0 E8 w6 e0 }Format profile : [email protected]@Main
. D; e, l0 p, Z* B* Q, G" mCodec ID : V_MPEGH/ISO/HEVC
& Q3 X! E- X7 y1 g! ?Duration : 1 h 26 min
: `* P4 v1 {1 [1 O' w* DBit rate : 14.4 Mb/s' d; z- V6 q! p6 [8 v# z: N) w
Width : 3 840 pixels/ I5 P% D  f; K7 i: m1 G
Height : 1 616 pixels
( Y  P/ ]1 t8 e0 c- h$ KDisplay aspect ratio : 2.40:1* Q. Q: n' c! N- b
Frame rate mode : Constant
1 j7 E2 C' d% T6 m8 `- qFrame rate : 24.000 FPS
" L) D- p" F, Q8 K  Y$ c" XColor space : YUV
' Z. T. P+ H5 gChroma subsampling : 4:2:0; l4 x1 n; Z, X0 C4 |
Bit depth : 8 bits
0 D+ ^1 [( Z/ }9 gBits/(Pixel*Frame) : 0.097
; S2 H% f; x8 zStream size : 8.73 GiB (97%)# _5 M: V; r$ W" R4 Q6 L3 e
Default : Yes# _* {- N/ {4 |1 w3 M2 p+ _
Forced : No
9 N& L) H  U, R$ P5 n+ k# x* \5 g- ], D, r1 k: t
Audio #1
- H0 ]% T7 G! X. n8 W5 f3 ~ID : 17 M. |; A5 D8 r6 n* Y
Format : E-AC-3
9 ?3 y& H3 n; cFormat/Info : Enhanced AC-35 f% P6 K$ _4 k6 `; ]0 U
Commercial name : Dolby Digital Plus% S/ X& F8 L: y$ w3 V
Codec ID : A_EAC30 p  t$ n+ U4 p6 @7 X! e$ R
Duration : 1 h 26 min# l. S1 _( B1 l6 s2 G
Bit rate mode : Constant
, a" [- S  N. {* b% }. ]Bit rate : 256 kb/s
4 y8 @, J" [3 j( c- RChannel(s) : 6 channels
% y$ K( N2 c+ v6 t/ WChannel layout : L R C LFE Ls Rs* B  q9 [) @4 g
Sampling rate : 48.0 kHz$ p& p9 u4 T, e, A/ J
Frame rate : 31.250 FPS (1536 SPF)& K' R( s. y# r
Compression mode : Lossy
$ m% _- F; y& sStream size : 159 MiB (2%)* ]4 T: X+ X6 C6 z5 N
Title : Mandarin
+ W+ M" l6 {. B8 `2 @+ y: n3 qLanguage : Chinese
* t6 s  l& B7 |. T  d2 tService kind : Complete Main
$ u8 [1 q, v* s0 n( v! j7 k, vDefault : Yes  H- J% g- i# r7 {
Forced : No% u$ k6 ~* ^0 r6 ?, Q5 m
6 E8 s% y3 a' r; h& ~
Audio #2
6 ]$ G( n1 c- l: ]- Y3 WID : 2
, v1 w5 t6 b% K% a) g. r" hFormat : E-AC-3
/ C1 L1 r, M. F3 O; V. lFormat/Info : Enhanced AC-3
8 m& e% M# \% Z3 \3 @; o$ c; ZCommercial name : Dolby Digital Plus
; N. H, X& P: _Codec ID : A_EAC3
! w8 n/ P0 x7 T+ U3 ADuration : 1 h 26 min9 F5 P% I' T* P8 T) \
Bit rate mode : Constant& _) I0 s+ R: k$ H; R4 h, h" \
Bit rate : 256 kb/s
. e3 V% _7 O/ r6 G- ZChannel(s) : 6 channels
" i# a" c' v( n3 P1 hChannel layout : L R C LFE Ls Rs
: a& _0 [- n% g$ I2 y# eSampling rate : 48.0 kHz+ z: a( o+ B7 U( X
Frame rate : 31.250 FPS (1536 SPF)
7 a7 h8 o$ Y) c5 i; K4 D% lCompression mode : Lossy  ^* C  H/ W0 K" A& a
Stream size : 159 MiB (2%)" U+ o' X! F: k5 S' k/ q* @2 B
Language : Vietnamese
  }  @- [0 ]% f! D/ {+ Q7 OService kind : Complete Main* _6 W$ e. q+ X& d+ [. x
Default : No
# k+ e. ~; C5 z9 EForced : No
: Q8 g/ ]7 c. }
$ }* }% p  y; o6 R

7 x$ h* Y/ m) |, i( W& |

霧山. MKV.torrent

27.31 KB, 下載次數: 10

累計簽到:754 天
連續簽到:1 天
發表於 2021-7-20 21:56:08 | 顯示全部樓層
VIP精品區,資源無限好賺金任務區,輕松賺金幣
加入VIP,享受高級特權宣傳賺金又升級,超級棒
很讚的文章,謝謝咯!相信WK因為有你而更加精彩!
累計簽到:71 天
連續簽到:71 天
發表於 2021-7-21 00:13:19 | 顯示全部樓層
VIP精品區,資源無限好賺金任務區,輕松賺金幣
加入VIP,享受高級特權宣傳賺金又升級,超級棒
為妻子報仇?還是選擇捨棄個人恩怨而保護家鄉的村民?耐人尋味感謝樓主精采分享
累計簽到:3 天
連續簽到:1 天
發表於 2021-7-21 01:55:09 | 顯示全部樓層
非常好看的影片

回復樓主 親!! 現在是後半夜!妳失眠啦?餓啦?通宵加班?還是想WK啦?

 分享同時學會感恩,一句感謝的話語,就是最大的支持!  歡迎交流討論
您需要登錄後才可以回帖 登錄 | 立即注册

本版積分規則

c重要聲明:本論壇是以即時上載言論的方式運作,WK論壇對所有言論的真實性、立場及版權等,不負任何法律責任。而一切言論只代表發佈者個人意見,並非本網站之立場,讀者及用戶務必自行判斷內容之真實性。 由於本論壇受到「即時上載言論」運作方式所規限,故不能完全監察所有言論,若讀者及用戶發現有內容出現「真實性、立場及版權」等問題,請聯絡我們:[email protected]論壇有權刪除任何言論(刪除前或不會作事先警告及通知)| SiteMap[網站地圖]

發表新帖 返回頂部