WK綜合論壇, WK综合论坛

查看:59 回復:0 發表於 2021-1-7 10:12:25
本主題由 212love 於 7 天前 刪除回復
累計簽到:2124 天
連續簽到:1 天
發表於 2021-1-7 10:12:25 | 顯示全部樓層 |閱讀模式
VIP精品區,資源無限好賺金任務區,輕松賺金幣
加入VIP,享受高級特權宣傳賺金又升級,超級棒

然后我們跳了舞 And.Then.We.Danced., 2019.[MKV / 13.89G] [複製鏈接]

影視分享
分類: 電影
題材: 劇情 同性 
地區: 法國 其它 
語言: 其他 
格式: MKV 
年份: 2019
資源: BT资源
1.jpg
; g% w; m/ W  V' k, \8 m4 C* @0 Q+ C4 n, T6 [/ H
◎译  名 然后我们跳了舞/And Then We Danced/以你的舞步撩动我(港)
3 i  J) ]" x; q, H( p( o◎片  名 ?? ???? ????????6 ^; ?2 Q: o1 `7 q. u; V* H
◎年  代 2019, a7 q6 S0 s' d- o
◎产  地 瑞典,格鲁吉亚,法国2 G  u# d, Z5 G5 `! o& t
◎类  别 剧情 / 同性; Z8 f$ _# z  O
◎语  言 格鲁吉亚语6 X" _! D- B9 q* r. W) J
◎上映日期 2019-05-16(戛纳电影节) / 2019-08-18(中国香港夏日国际电影节) / 2019-09-13(瑞典)
& E$ a# x" d2 {! Q/ J% S5 Z; E◎IMDb评分 7.8/10 from 8977 users6 R( ^! e5 D- u/ T' }: Q2 m
◎IMDb链接 https://www.imdb.com/title/tt8963708/" Z$ @, }' j4 [
◎豆瓣评分 7.9/10 from 8520 users; W1 ]" R* q6 p0 S$ Y
◎豆瓣链接 https://movie.douban.com/subject/30394484/
5 ~% Z9 L8 Q9 I- M$ E/ T+ ~◎片  长 105分钟7 O) J# B9 n1 p" V
◎导  演 列万·阿金 Levan Akin$ v% u" z" u, X  c: ^9 m
◎编  剧 列万·阿金 Levan Akin7 ?/ _9 G/ F* n% |2 b9 e6 v& k* F% l
◎主  演 列文·格尔巴赫亚尼 ????? ??????????  V6 w4 k0 }% ~
      巴奇·瓦利什维利 ???? ?????????
/ {: S1 N) l2 `: U- W      安娜·贾瓦基什维利 Ana Javakishvili
2 f( y5 ~8 m# e" B. F      格奥尔基·采列捷利 Giorgi Tsereteli
! r6 U( r4 @; c+ a* T4 F      塔马尔·布赫尼卡什维利 Tamar Bukhnikashvili
! o+ e0 w- m0 u  a+ F. c      玛丽卡·戈吉查什维利 Marika Gogichaishvili
1 r& n. S! Z- }1 M" d# h      卡卡·戈吉泽 Kakha Gogidze
) |5 k/ |/ K0 M! J7 ]      莱万·加布拉瓦 Levan Gabrava/ @1 C2 F7 ?7 ^4 W8 d
      安娜·马克哈泽 Ana Makharadze' X$ J6 L3 C! i2 d
      尼诺·加比索尼亚 Nino Gabisonia: T* b6 P" n) U3 p+ O
      马特·基沙德利 Mate Khidasheli
  U9 Z- b9 q8 ]$ u7 f2 R+ }. t      阿莱科·贝加里什维利 Aleko Begalishvili
3 q* e" `. g+ X) g+ P; m6 p2 E      沙巴·阿巴希泽 Saba Abashidze
+ u# I+ A" i4 t/ _3 Z      索索·阿布拉米什维利 Soso Abramishvili1 h( s: U8 q; X4 K2 V" \5 s5 O# P
      戴维特·阿布拉泽 Davit Abuladze  t0 X5 X% |( E8 V% ^* K% w" U
' g* \+ d; n' P- Z3 ?
◎标  签 同性 | 格鲁吉亚 | 舞蹈 | 爱情 | 瑞典 | 2019 | 剧情 | 文艺
2 H0 y9 E" J( b% e2 W. G; l/ b! `6 Q: d# i4 F6 D* w/ q( ?
◎简  介
4 r* h  l$ J5 K! @* g% T! `; T  `8 K# U
  梅拉布从小就在格鲁吉亚国家舞团与他的舞伴玛丽一起训练。当富有魅力、无忧无虑的伊拉克利到来后,他不仅遇到了最强大的对手,也触发了内心的欲望,世界就这样突然颠倒。可在这种保守的环境中,梅拉布发现自己必须挣脱束缚寻求冒险。7 }3 s( k! @& V$ j, |. |: K

, J6 H$ E8 B5 j. o8 M4 Z◎获奖情况: ?5 ]& Y! X( q- c! O+ Y# @8 G9 j
* B$ w/ S- ^0 E" U: [
  第72届戛纳电影节 ?(2019)
$ b. R  e% }  g  导演双周单元(提名) 列万·阿金% v( n; y% s4 p2 I9 I' ?
  同志金棕榈奖(提名) 列万·阿金) q0 K4 c$ H; X4 p) o
  
) t! `0 G- r" y  第32届欧洲电影奖 ?(2019)
1 s2 p) B5 z) J, \+ m. H8 [' I9 `) `  最佳男主角(提名) 列文·格尔巴赫亚尼
7 a! d# u. h+ \3 i. p7 Z  9 U$ I$ E& N2 b! p" i
  第7届豆瓣电影年度榜单 ?(2020)% E9 m9 z; }- G- @0 i
  年度LGBT电影(提名)0 d- s+ C, O; B; ?1 A4 s1 N1 \
Video
2 a5 v. W  @9 ?7 y1 E! v- jID : 1
- Z! O0 T2 O4 @/ v% k" N  y0 A; e5 [Format : AVC; Q# B+ V, a# u/ d
Format/Info : Advanced Video Codec$ W- C% ^9 P+ P3 j0 h9 {
Format profile : [email protected]; p% r, r- x/ |' P3 f+ }
Format settings : CABAC / 4 Ref Frames
! @) I3 W. ~9 F$ l8 k$ VFormat settings, CABAC : Yes/ ]4 T  t: ~0 z6 C( r
Format settings, Reference frames : 4 frames0 j7 `  H$ d9 `2 u2 q/ v/ m
Codec ID : V_MPEG4/ISO/AVC  L& n3 T, Q- ^. [$ R- Q
Duration : 1 h 53 min7 @& N  @, J  r' C. I$ k
Bit rate : 16.1 Mb/s. H6 u; n. x8 y& S) r
Width : 1 920 pixels/ f4 J2 W! V" ]& E& }
Height : 1 080 pixels
" k7 F1 ~9 N$ H% a3 XDisplay aspect ratio : 16:9
2 s! {, l: ~7 G7 X% QFrame rate mode : Constant6 v: ]6 j7 X! ^7 t- r1 \
Frame rate : 23.976 (24000/1001/189150) FPS( u) F. k8 Z4 g
Color space : YUV
- L8 L$ p" U( m0 U8 DChroma subsampling : 4:2:0/ v, I4 {) `2 `, m+ v/ |3 h8 S
Bit depth : 8 bits0 D+ }5 e6 ]# B7 d/ P0 r
Scan type : Progressive2 c) B! k! Y" D9 n  y
Bits/(Pixel*Frame) : 0.323& L0 p9 E8 {9 c* j! l( Z
Stream size : 12.7 GiB (91%)
" P1 B2 |& [' `4 N1 k  F4 QWriting library : x264 core 161 r3018+53 18a1d6c t_mod_New [(8 & 10)[email protected] X86_64]
' n1 L) n# h4 F/ P4 O' ~" \Encoding settings : cabac=1 / ref=4 / deblock=1:-3:-3 / analyse=0x3:0x133 / me=umh / subme=11 / psy=1 / fade_compensate=0.00 / psy_rd=1.00:0.00 / mixed_ref=1 / me_range=48 / chroma_me=1 / trellis=2 / 8x8dct=1 / cqm=0 / deadzone=21,11 / fast_pskip=0 / chroma_qp_offset=-3 / threads=9 / lookahead_threads=2 / sliced_threads=0 / nr=0 / decimate=0 / interlaced=0 / bluray_compat=0 / constrained_intra=0 / fgo=0 / bframes=11 / b_pyramid=2 / b_adapt=2 / b_bias=0 / direct=3 / weightb=1 / open_gop=0 / weightp=2 / keyint=240 / keyint_min=1 / scenecut=40 / intra_refresh=0 / rc_lookahead=72 / rc=crf / mbtree=0 / crf=19.0000 / qcomp=0.65 / qpmin=0:0:0 / qpmax=69:69:69 / qpstep=4 / vbv_maxrate=62500 / vbv_bufsize=78125 / crf_max=0.0 / nal_hrd=none / filler=0 / ip_ratio=1.40 / pb_ratio=1.30 / aq=3:0.70 / aq-sensitivity=10.00 / aq-factor=1.00:1.00:1.00 / aq2=0 / aq3=0. \0 f9 N* j4 m: ], z2 `
Default : Yes
" Z$ u* [: o+ k0 x: yForced : No
8 _" c, K! I; s+ p/ V% `/ H
# h$ F& h* l( Y6 [6 I  v1 hAudio
( o# L0 w2 T- k( D. {7 W" N4 GID : 2! M8 r  x& T: Y/ K* @
Format : DTS
/ R4 g4 c5 h, MFormat/Info : Digital Theater Systems$ p8 d% f/ ]2 z! K8 A3 C/ l1 I
Codec ID : A_DTS
1 ~/ k5 X* O7 a& N3 I/ R8 }! dDuration : 1 h 53 min
6 v. W2 H2 o0 ?Bit rate mode : Constant4 A5 y9 M. M2 D+ N/ q
Bit rate : 1 509 kb/s
+ |4 ]6 \' j0 x% W3 D4 `Channel(s) : 2 channels
, ~- o7 d0 E+ X+ ~Channel layout : L R, a' ]. g4 d) d7 [1 W
Sampling rate : 48.0 kHz1 B2 [  |* Y( \) i
Frame rate : 93.750 FPS (512 SPF)
9 i$ Q) E0 y  X0 bBit depth : 24 bits
- q6 l4 n' \- |7 V" O0 ?  HCompression mode : Lossy! l- R- Y6 p" b
Stream size : 1.19 GiB (9%)
7 m6 {. H$ Z$ @( J' cLanguage : English2 \6 b4 u7 a  n& O# |. G' ~3 i8 C
Default : Yes# _' u! N9 r! @1 U: i
Forced : No5 c) l6 F1 b. m2 ?: m' K+ T* m
  e' K" U  R, U; i- k0 F# C; k
Text #1
& z* F; N$ {) z. q; W! G4 KID : 3+ P0 U3 d. {; ]7 K2 ?& S8 y) d
Format : UTF-84 ]4 U5 B; b; x; T$ G" q: W& M
Codec ID : S_TEXT/UTF8$ N& b0 C7 x: y+ F" ^& H6 l4 ~- q
Codec ID/Info : UTF-8 Plain Text
2 T+ X6 O2 T3 S4 B2 NDuration : 1 h 45 min
0 Q& g; U, E0 r1 u  W4 j, O: uBit rate : 30 b/s% v  n0 W: H6 w/ [# F9 L
Count of elements : 1057# B2 F& J8 _% \( `* U
Stream size : 23.9 KiB (0%)6 w6 A# ^7 s% E* Z' c& M& h( s
Title : SRT0 v9 T6 X4 p9 a9 P; M6 ^9 v4 l
Language : English
( N7 z8 W; V" a- nDefault : Yes
0 [7 B: u. |8 d8 a; s) RForced : No
2 N( ?; y; \4 Y5 w
: R3 z$ {# q2 w( `Text #2! U& c' L# F6 S" [1 B: e
ID : 4
' F" s$ t7 d2 j3 e+ f  e+ sFormat : ASS1 g& B! s) q) }. Q! @3 [
Codec ID : S_TEXT/ASS; k# n5 G8 d4 S. }
Codec ID/Info : Advanced Sub Station Alpha
% ~4 f0 t- H# _0 i: o* CDuration : 1 h 45 min! U' ~6 V* l& \" d
Bit rate : 98 b/s
2 X( H( o0 l) {, }Count of elements : 1057
) r5 P* F( D0 Q& |6 lCompression mode : Lossless2 ^  d" l+ W* E+ Y
Stream size : 76.4 KiB (0%)
7 A7 p4 [- e7 B5 }: DTitle : chs&eng5 K: `; o' I+ S, O" R* e
Language : Chinese( v# }! M! x% O: D$ }% V1 K+ s  M
Default : No
% M; D+ p  n8 _& H2 OForced : No$ x7 ]' F5 I6 s+ U9 V

6 t1 G2 R/ W- g" \  M7 NText #3; v' B( H& Y: B% G0 x( T3 P' j& e
ID : 5
, c0 L( x$ I: p! kFormat : ASS- M* J9 M9 O. B) c/ _: d
Codec ID : S_TEXT/ASS
- ?- [/ g( ]' `- Y8 bCodec ID/Info : Advanced Sub Station Alpha6 g! l1 J: J6 B) B) B9 D  R  k3 a
Duration : 1 h 45 min% m; T; V- S) K% ?
Bit rate : 98 b/s: ~) g+ K2 w' f: e8 y
Count of elements : 10572 ?) A# p" A1 H* D( B# Q$ z
Compression mode : Lossless* P& x5 o. r! T; W8 H
Stream size : 76.4 KiB (0%)
: \: Q. R3 h' E$ [7 H  }Title : cht&eng& G+ J; F, J6 S6 T* Q/ z
Language : Chinese4 s! w3 {  O0 K/ @9 y% S3 s% Y
Default : No7 b6 l! T: g7 w; N' o* i
Forced : No* A( w9 q  O8 M4 V. S5 I0 ]

9 x1 K# T- m$ H: IText #4! p/ }0 x; u- b; \3 m9 D" R8 T
ID : 69 V% x1 Y5 b. A4 v& R
Format : ASS* D; N9 G) P4 T
Codec ID : S_TEXT/ASS  W. p6 d# D! K/ _" w' Q. S
Codec ID/Info : Advanced Sub Station Alpha* b$ R7 L/ K0 y' m
Duration : 1 h 45 min
' N8 x5 }+ s. _Bit rate : 56 b/s2 p  o$ K* `; y
Count of elements : 1057$ _3 O* u! ^0 n! p& [
Compression mode : Lossless
: L4 q1 m* R1 t4 p3 q8 p: vStream size : 43.8 KiB (0%)1 c8 e4 V+ y6 o: s! _% l# g
Title : chs+ c4 t# e4 C/ j( j3 g
Language : Chinese! y9 H  Q- @3 B0 d/ S3 ~
Default : No
/ Q! x! ]. W; u  u+ v/ TForced : No5 ^  N6 ^6 t. X; ?8 Z

8 x& Z) W  v$ K% M- P/ KText #5
$ ~! s" O+ q7 _5 {6 p. hID : 7
1 s/ `& K7 Y5 |Format : ASS2 o) a( @" |0 P( X9 e% ]/ E
Codec ID : S_TEXT/ASS/ }* t* T; T, [
Codec ID/Info : Advanced Sub Station Alpha
/ W( g) C* L7 G2 {Duration : 1 h 45 min
- C  v' v% E$ r% F/ C( f2 ]Bit rate : 56 b/s
8 ^  R8 ?9 `+ L1 ~' I$ K' nCount of elements : 1057
( N, v  C; L6 oCompression mode : Lossless, d+ i8 f4 X% B9 I6 G
Stream size : 43.8 KiB (0%)
2 ]2 H; _' h5 l' F5 \% ^6 L( BTitle : cht
# x+ V# d& O8 o2 W( g& B0 yLanguage : Chinese! `; X' h5 \" ?
Default : No
- t+ S! @1 }3 ^! y3 uForced : No
; Y8 l8 ?8 r$ q2 `7 i) M( M* }
2 D5 d2 w! |& CText #6
+ d1 j3 X( Y" H* W, lID : 8
' M) D4 G7 \: k: I# b  nFormat : ASS
7 |% {* I1 Y+ p7 [8 R. a; @  ]Codec ID : S_TEXT/ASS2 ]7 A, U. l, m" r" E4 `
Codec ID/Info : Advanced Sub Station Alpha
" ^& r! u: w. q5 H2 ADuration : 1 h 45 min
) z- s7 B8 G) X, oBit rate : 60 b/s
2 w/ }9 H: u+ P. `+ W7 ZCount of elements : 1057
: b, I0 C2 N/ H2 Z  A5 ]Compression mode : Lossless' R. w1 R0 A. f- M- w
Stream size : 46.5 KiB (0%)6 F+ o+ S" v9 ?
Language : English
$ h: f% }& h5 Q$ q( j; [Default : No" B8 \- l: W- f4 D
Forced : No
. a' \) w) Y7 {; R! A& F5 X9 \% Z! K( ?5 O2 j
Menu
$ R; E% \# p7 H( N0 R! E# Q00:00:00.000 : en:Chapter 01
; J( I# j; \1 z( B: Q9 [9 O$ J00:08:38.518 : en:Chapter 02, z5 p' ^+ n- T' I
00:18:09.171 : en:Chapter 037 n! E8 x7 k6 U* [/ I  t' A$ `
00:27:19.429 : en:Chapter 04& Z2 _% m1 T. u) {
00:36:16.883 : en:Chapter 05" w% m( S" E7 j3 v$ f
00:44:40.803 : en:Chapter 06
5 F& e$ B% U6 I- X" b00:53:42.511 : en:Chapter 07
) a- G& w5 d  X, Y! }9 z/ X5 c01:01:08.999 : en:Chapter 08
3 w: r4 k0 a) m* h4 R5 R8 o: p01:09:15.610 : en:Chapter 09
# X8 t8 T$ M' r' s0 {01:15:58.554 : en:Chapter 10
! k/ f& g# y1 [2 o- }01:26:11.833 : en:Chapter 11! I" p4 f1 z& t5 t
01:35:22.050 : en:Chapter 12
8 g% }7 ^- Q  `01:46:52.573 : en:Chapter 13

; `  t) F7 z1 _! j: \( i5 `( y8 y5 ?/ w' {! J1 v9 i
3 \' d$ P# e- ~, U: b

然后我們跳了舞. MKV.torrent

69.97 KB, 下載次數: 3

回復樓主 親!! 現在是後半夜!妳失眠啦?餓啦?通宵加班?還是想WK啦?

 分享同時學會感恩,一句感謝的話語,就是最大的支持!  歡迎交流討論
您需要登錄後才可以回帖 登錄 | 立即注册

本版積分規則

c重要聲明:本論壇是以即時上載言論的方式運作,WK論壇對所有言論的真實性、立場及版權等,不負任何法律責任。而一切言論只代表發佈者個人意見,並非本網站之立場,讀者及用戶務必自行判斷內容之真實性。 由於本論壇受到「即時上載言論」運作方式所規限,故不能完全監察所有言論,若讀者及用戶發現有內容出現「真實性、立場及版權」等問題,請聯絡我們:[email protected]論壇有權刪除任何言論(刪除前或不會作事先警告及通知)| SiteMap[網站地圖]

發表新帖 返回頂部