WK綜合論壇, WK综合论坛

查看:78 回復:2 發表於 7 天前
本主題由 212love 於 6 天前 刪除回復
累計簽到:2124 天
連續簽到:1 天
發表於 2021-1-10 10:38:50 | 顯示全部樓層 |閱讀模式
VIP精品區,資源無限好賺金任務區,輕松賺金幣
加入VIP,享受高級特權宣傳賺金又升級,超級棒

勇士迷蹤 The.Legion., 2020.[MKV / 4.38G] [複製鏈接]

影視分享
分類: 電影
題材: 動作 冒險 曆史 
地區: 美國 
語言: 英语 
格式: MKV 
年份: 2020
資源: BT资源
1.jpg 9 x9 L! N0 d1 @+ T+ f0 o3 `) f) j9 l

4 U3 q7 v; z8 \2 A◎译  名 勇士迷踪/The Legion/军团的踪迹
) t# K3 c/ [" |8 ?! p+ S+ q◎片  名 Legionnaire's Trail$ Y# K  `, i, w/ M% l4 m
◎年  代 20208 d; e1 I) b9 a. r, P
◎产  地 美国! s$ y; G9 K3 y! }# v/ c
◎类  别 动作 / 历史 / 冒险
) F7 U9 }$ E- A' q4 w◎语  言 英语
& `- z6 t) {$ M% `) L2 j, q◎上映日期 2020-05-08(美国)( I0 {8 X5 h2 T) q5 J0 R( k
◎IMDb评分 /10 from 527 users) l! w: Y% B2 m! H/ d& f6 w$ s5 A2 F
◎IMDb链接 https://www.imdb.com/title/tt8318284/
1 W" _7 g* }7 r4 z9 c◎豆瓣评分 /10 from 0 users
% d7 l. o3 ?4 N+ L◎豆瓣链接 https://movie.douban.com/subject/34445270/
/ O: V3 {# W7 n/ i◎片  长 96分钟: h- ^3 {* q: K% O# D
◎导  演 何塞·马根 Jose Magan
  s& I8 V) u/ T  \◎编  剧 Alberto Vázquez Figueroa / 何塞·马根 Jose Magan, O% p: ?0 g. j! g( A9 V/ E
◎主  演 米基·洛克 Mickey Rourke. ^; y% `6 `' }
      白灵 Ling Bai
0 n; }3 \8 q$ N. F      弗拉基米尔库利奇 Vladimir Kulich4 A& ?- k, ^- r+ W% ]  f
      乔昆姆·德·阿尔梅达 Joaquim de Almeida9 M! E5 }( r' z0 H8 \, B
      马克西姆·马特维耶夫 Maksim Matveev
' N0 a( V; F- {% A& h4 s6 k
( j! |! Y0 G' z  c' \◎标  签 白灵 | 跑 | 米基洛基 | [歐美]
" V3 z% |$ K! @  b
" J7 O0 x; ~# L  I( A4 R◎简  介 $ X0 v3 R* q3 Q! I+ M2 E

1 j: R, o5 g. @5 f, d1 e  Nero's reign. The invasion of Parthia has been a fiasco. Two Roman legions have been brought to a stand still in the snowy mountains of Armenia, and the men are dying slowly in the cold. The rest of the Roman army is in Syria, only two weeks march away but the mountains swarm with Parthian patrols. Noreno, a half-Roman, is entrusted the mission of crossing the mountains to ask for help. However, he might not be the best option, he's an expert runner, but he despises Rome.. F, P, ?+ c  b; ~9 d. ^7 ?7 u
Video
' \, G/ x, l8 `* o3 n* eID : 1
- {" l1 N+ l& Q' q3 I" o( kFormat : AVC* V( v: r* V( Q& `& c" A& d, o
Format/Info : Advanced Video Codec
) n4 H8 ?, _% y9 l9 @! b) ?) wFormat profile : [email protected]$ H) S: x3 p: u9 b) K9 Q& U
Format settings : CABAC / 5 Ref Frames: A$ i: m  D& P! F1 X+ i7 n3 E
Format settings, CABAC : Yes
8 b0 d9 @" ]: z# x7 {Format settings, Reference frames : 5 frames5 _- ]$ o% a) h% o9 k$ {2 g
Codec ID : V_MPEG4/ISO/AVC
7 E3 g0 s4 ~7 {  PDuration : 1 h 35 min! I4 E3 `; g9 u. e6 u- W6 s
Bit rate : 4 803 kb/s
0 {. J  \6 w$ M" H7 `8 x: s) h; ~) {Width : 1 920 pixels3 q; G2 I8 `1 T4 L' E/ l: e8 d- {
Height : 804 pixels
! C& C2 [% C( L# M2 S: \; a6 mDisplay aspect ratio : 2.40:1, W4 P- A2 E* i/ Y/ {
Frame rate mode : Constant
6 n+ [# l# b9 d* O0 g3 y% X% sFrame rate : 23.976 (24000/1001/189150) FPS
3 s! C; Z9 L6 _Color space : YUV
) i4 `/ q, C3 i9 E7 T% ?Chroma subsampling : 4:2:0$ u# r. E+ H7 G5 X
Bit depth : 8 bits
" U+ ]% Q& M5 aScan type : Progressive
! A( ~& \, u) w6 |& SBits/(Pixel*Frame) : 0.130
: K' I' P6 g/ D6 r* l1 D; m" d5 IStream size : 3.21 GiB (73%)$ q1 X( g+ E3 A8 b( {2 z
Writing library : x264 core 161 r3027 4121277$ u) n& B2 _) ^# M) W1 G
Encoding settings : cabac=1 / ref=5 / deblock=1:-3:-3 / analyse=0x3:0x133 / me=umh / subme=9 / psy=1 / psy_rd=1.00:0.00 / mixed_ref=1 / me_range=16 / chroma_me=1 / trellis=2 / 8x8dct=1 / cqm=0 / deadzone=21,11 / fast_pskip=0 / chroma_qp_offset=-2 / threads=25 / lookahead_threads=2 / sliced_threads=0 / nr=0 / decimate=1 / interlaced=0 / bluray_compat=0 / constrained_intra=0 / bframes=3 / b_pyramid=2 / b_adapt=2 / b_bias=0 / direct=3 / weightb=1 / open_gop=0 / weightp=2 / keyint=250 / keyint_min=23 / scenecut=40 / intra_refresh=0 / rc_lookahead=60 / rc=crf / mbtree=1 / crf=17.0 / qcomp=0.60 / qpmin=0 / qpmax=69 / qpstep=4 / ip_ratio=1.40 / aq=1:1.00
% B: ]; c( b+ Z8 d. u6 m3 ?$ PLanguage : English% B8 }+ z. ]5 `
Default : Yes
8 x" f' b& e7 m8 ?% X- h/ IForced : No
/ O9 C& O* F, s; k& y% _0 M) c
( |! K- u9 K9 ]/ O; zAudio
: N; G+ z" I( M3 a4 MID : 25 w% }, S( J/ o, g$ y
Format : DTS XLL
8 m7 L" t. N) G$ _1 RFormat/Info : Digital Theater Systems2 H  O. ^6 s" @" \) R. j& A
Commercial name : DTS-HD Master Audio
: m7 i2 w/ f1 ?9 oCodec ID : A_DTS0 {$ c. h1 `2 D5 E1 _% |& P( P& a
Duration : 1 h 35 min
1 A/ {  b8 K5 \, CBit rate mode : Variable9 \" I% n' @1 \- V. e* [! M
Bit rate : 1 732 kb/s( J, }6 @$ r) B2 a4 ]
Channel(s) : 6 channels: K  |$ _: R+ Q0 e
Channel layout : C L R Ls Rs LFE
( O; v2 M& H* @1 Y1 o! @2 nSampling rate : 48.0 kHz
, Y1 b9 J9 F$ vFrame rate : 93.750 FPS (512 SPF)' P5 D/ W5 [# a: I5 `0 X
Bit depth : 16 bits# h. T6 [7 H- ?# i: R" _
Compression mode : Lossless: {+ G# g% F8 x- C7 t5 e6 \
Stream size : 1.16 GiB (26%)3 b" x( @5 S1 e
Language : English
. _2 @1 x. B, s8 _: h0 q# z* J+ `Default : Yes
* Z/ q7 M7 `  Y( u. }0 I8 f/ xForced : No
' Y' X1 [4 {1 y: z
$ x9 f9 c. A6 P* d9 K* C' MText
" |4 r, l- V/ QID : 3
' c" D( `6 V, nFormat : PGS
, N4 R" E* g4 t7 p* d% C% Z) p8 uMuxing mode : zlib
! h' d1 N) y! p, I( k4 O; O+ ]0 WCodec ID : S_HDMV/PGS
) K- ?; x0 I% _9 Q0 lCodec ID/Info : Picture based subtitle format used on BDs/HD-DVDs- O: l# H. j( B
Duration : 1 h 29 min
' K* k- C: f+ W0 a8 o( c  H2 V- eBit rate : 15.7 kb/s2 @. n& d6 U0 ]6 H% ~' G" G
Count of elements : 10094 I4 Y4 _# A: l6 T
Stream size : 10.1 MiB (0%), L# Z9 K6 ]: I( A! A' A/ `
Language : German! U# {0 t2 m) [( \. w8 `
Default : No$ T" E: t8 N! \+ j5 u
Forced : No, y) E" E0 C7 \7 O

$ c) a1 r7 ?' P  l7 v) }Menu/ F- |. z0 m3 Y) r2 Y5 j. t
00:00:00.000 : en:Kapitel 01* e2 B5 u; B6 Q% `
00:04:11.084 : en:Kapitel 02# ?; l* k3 e- X! E  H  D" f
00:11:20.430 : en:Kapitel 03) M. i9 T' B( v$ O& C* T
00:21:18.694 : en:Kapitel 045 Z8 M+ f2 f, i; [( @+ N
00:28:52.105 : en:Kapitel 05% D4 W9 }. n, \. M% E
00:37:21.448 : en:Kapitel 06% E: R" }  V) p3 i
00:43:15.384 : en:Kapitel 07: u2 r% @3 Z/ d) a/ M' t' y
00:46:50.099 : en:Kapitel 088 i, s: p+ m  _$ _, x: S
00:54:44.990 : en:Kapitel 09
: x* I; [. E8 U5 ?: J7 W. R! m6 L01:05:41.229 : en:Kapitel 10. M0 o5 k- l# d1 J! W- {  c
01:17:22.471 : en:Kapitel 11# v  D% {) T. t7 ]
01:30:39.100 : en:Kapitel 12
4 A- |; b$ [/ |3 V! f
! h& y' k. K7 l# b3 M

7 J1 h& \9 _+ q4 d8 N1 q

勇士迷蹤. MKV.torrent

44.41 KB, 下載次數: 45

累計簽到:2 天
連續簽到:1 天
發表於 2021-1-10 17:15:35 | 顯示全部樓層
VIP精品區,資源無限好賺金任務區,輕松賺金幣
加入VIP,享受高級特權宣傳賺金又升級,超級棒
感謝大大的辛勞分享!我會繼續在WK關注大大的文章!

尚未簽到

發表於 7 天前 | 顯示全部樓層
相信WK因為有你而更加精彩!

回復樓主 親!! 下午好,中午養足了精神嗎?讓我們一起渡過下午茶時間,WK有您更精彩!

 分享同時學會感恩,一句感謝的話語,就是最大的支持!  歡迎交流討論
您需要登錄後才可以回帖 登錄 | 立即注册

本版積分規則

c重要聲明:本論壇是以即時上載言論的方式運作,WK論壇對所有言論的真實性、立場及版權等,不負任何法律責任。而一切言論只代表發佈者個人意見,並非本網站之立場,讀者及用戶務必自行判斷內容之真實性。 由於本論壇受到「即時上載言論」運作方式所規限,故不能完全監察所有言論,若讀者及用戶發現有內容出現「真實性、立場及版權」等問題,請聯絡我們:[email protected]論壇有權刪除任何言論(刪除前或不會作事先警告及通知)| SiteMap[網站地圖]

發表新帖 返回頂部