WK綜合論壇, WK综合论坛

查看:79 回復:0 發表於 4 天前
本主題由 212love 於 前天 11:30 解除高亮
累計簽到︰1994 天
連續簽到︰30 天
發表於 4 天前 | 顯示全部樓層 |閱讀模式
VIP精品區,資源無限好賺金任務區,輕松賺金幣
加入VIP,享受高級特權宣傳賺金又升級,超級棒

長夜危機 Survive.the.Night., 2020.[MKV / 3.82G] [複製鏈接]

影視分享
分類: 電影
題材: 動作 驚悚 
地區: 美國 
語言: 英语 
格式: MKV 
年份: 2020
資源: BT资源
1.jpg : W, V2 P2 L, q( J. o# L  B) `. R

4 p% D0 a/ k9 d/ j! X◎译  名 长夜危机 / Open Source / The Long Night / 开源 / 恶夜救援(台) / 长夜& \- E8 y% E7 B
◎片  名 Survive the Night) W! Y& O8 ?+ q! `( B8 p  s
◎年  代 2020$ ~( C9 d4 K, Q, O1 G9 n
◎产  地 美国: ~1 D4 e/ ?& t+ ^( D' n
◎类  别 动作 / 惊悚
; C6 }) m% _. W# f2 j3 \* E; L◎语  言 英语
0 }& W1 o9 C1 `& J◎上映日期 2020-05-22(美国)
3 U) n# P6 [9 |. Q! Z+ h. s◎IMDb链接 https://www.imdb.com/title/tt10303324
. x9 q) [( z" p! N) q◎豆瓣评分 0/10 from 0 users
2 L& y" p4 V5 ~% j" F$ x. T◎豆瓣链接 https://movie.douban.com/subject/33440170/
# Z& \7 t, V- _  U' H◎导  演 马特·伊斯坎达里 Matt Eskandari5 q7 M" n$ z9 d+ l( Y$ I4 x
◎编  剧 Doug Wolfe
5 n4 \6 {, `! q  ~2 W◎主  演 布鲁斯·威利斯 Bruce Willis
/ i( n- o6 }2 p/ L% }      查德·迈克尔·墨瑞 Chad Michael Murray
7 \& }+ z( c) C- e/ j+ o. F0 S      丽迪雅·赫尔 Lydia Hull
8 M2 v* r$ C  j- V, E" U      泰勒·乔恩·奥尔森 Tyler Jon Olson
% K' g' ]4 S: a5 ]( Z- P0 ~      谢伊·巴克纳 Shea Buckner! C4 f8 P9 m: h1 e
      Jessica Abrams
/ d% a( _/ p) N      Ravare Elise Rupert
+ W3 {. ~' f5 Z      Natalie DiDonato0 _& Z/ O" a$ }# O7 }
      Sara Lynn Herman' p( w. F* R9 ?& O* x5 n
      Charlie Alvarado
) S) i6 L( k6 L3 a. \& O% V. N* U8 K      Riley Wolfe Rach
8 V5 k. N$ U7 a" n* z$ N      Jef Holbrook4 u9 Q6 y6 ^8 t/ x, f- i( O
/ G0 C9 L% k! u: s

) G6 q8 K5 D6 }0 @; e5 d# \+ U! X◎标  签 美国电影 | 惊悚 | 动作 | 电影 | 布鲁斯·威利斯
2 E, H- K7 z5 s( C/ d% m+ X' R
  ?$ [0 y# \$ i( \# @# }: `◎简  介# q) J# W7 `" q3 z3 B: d
8 Y1 x5 i1 P+ t8 l% {
  布鲁斯·威利斯将主演马特·伊斯坎达里([深水区])执导的动作惊悚片[长夜](The Long Night,暂译)。影片讲述两个冷血罪犯闯入一个市井医生家中,为其中一个因抢劫失败身负重伤的罪犯治疗。然而这位医生并不具备治疗罪犯伤情的医学技能,医生该如何保护他的家人呢?影片将于6月3日佐治亚州哥伦布开机。* I) n; u) C# H7 s( D: r6 y: X
Video
( k2 H+ K% K* M! ]* B& c4 _2 ^4 @ID : 1
; [5 _/ ]/ ]+ m  G5 V  q) zFormat : AVC0 n+ n9 V, y" Z- h8 F( Z6 R/ i
Format/Info : Advanced Video Codec+ r; S# ]$ a; y  U; D6 o
Format profile : [email protected]4 @" s+ {" p+ D# n7 ^7 f0 y
Format settings : CABAC / 4 Ref Frames
1 c- `3 Y* z( N2 c8 F7 X5 GFormat settings, CABAC : Yes
& t0 l9 Z# C1 ?6 S/ ~$ d" }Format settings, Reference frames : 4 frames6 [- P. K1 `5 Y! R" I
Codec ID : V_MPEG4/ISO/AVC
; b" O) H# x* B3 k1 ADuration : 1 h 28 min
0 B) N6 Y: ]/ N! _% _* n' BBit rate : 5 772 kb/s
1 v/ [' g" A2 [" `4 fWidth : 1 920 pixels* L' A1 M$ S) l8 \, v# A
Height : 1 080 pixels* {+ Z& g3 N2 A5 I" m+ f
Display aspect ratio : 16:94 u( C/ ]+ F8 A3 m" Q9 w
Frame rate mode : Constant
" z# ~1 W- E# A; }5 B. jFrame rate : 23.976 (24000/1001/189150) FPS7 Q' L% I: I  C. U# P, R- {
Color space : YUV
) t. l' O5 b* {3 ^Chroma subsampling : 4:2:0, e& z: |4 w1 J' {
Bit depth : 8 bits1 Y) r) _5 G2 h/ p) s
Scan type : Progressive  A% S* s) E, R$ I; i1 c
Bits/(Pixel*Frame) : 0.116. _  C5 \6 k6 V* E3 @3 }. G
Stream size : 3.58 GiB (94%)
6 |  b5 m* t+ n, b6 }+ EDefault : Yes& Q7 j5 X7 i) |" x- F) @* w9 q# Y
Forced : No
" H* |# B% k( v! I# u$ b3 y, |3 [' i( K! w" C
Audio
+ b& |! q$ i2 P; B: K4 fID : 2
/ m4 {* M( X9 |/ o) S3 D, {Format : AC-3
# `/ Q3 L4 D) g, r, cFormat/Info : Audio Coding 3' @$ M5 |7 e& ^  z8 Y  |
Commercial name : Dolby Digital0 \- z+ ?, i8 `/ |3 p0 `7 E" Q
Codec ID : A_AC3
; {3 E1 G) ]& G& h' ^- ADuration : 1 h 28 min
) _7 c4 X7 v3 h* f- I1 ?4 ]! ~Bit rate mode : Constant2 H! \  M6 u" c; U
Bit rate : 384 kb/s
8 y( i2 }1 I/ c! O6 f& fChannel(s) : 6 channels) p" P+ z! ^- I& E3 N
Channel layout : L R C LFE Ls Rs) k) A) H3 W4 l( D3 ?7 J
Sampling rate : 48.0 kHz# {: h9 h/ K+ ~' G5 ]( g& a
Frame rate : 31.250 FPS (1536 SPF)
0 r5 n. V. R7 Y! ]0 f! I8 |Bit depth : 16 bits3 x+ k% h- U& c/ Y8 a# K
Compression mode : Lossy2 Z! V: @& ?, v  \
Stream size : 244 MiB (6%)+ ]" g( {/ q+ t& z' Y
Language : English# f+ b6 z, Z2 O# ~+ Z/ e
Service kind : Complete Main
. t0 H* c& n, B: H( RDefault : Yes& c$ K( h1 v- P! z
Forced : No
$ {4 `  i; n; A% s0 |6 l7 m( `0 B# _8 ?% d
Text6 P/ y  L0 r$ X' M. Y2 g# E* G
ID : 3$ Q+ X  n; U9 N# ?- j
Format : UTF-88 o1 ~5 e- U3 A4 z* F
Codec ID : S_TEXT/UTF8) z6 s% ^* V% s
Codec ID/Info : UTF-8 Plain Text
$ n8 j* u+ e1 u- X' dDuration : 1 h 20 min$ t! u. e  g5 ^6 E
Bit rate : 35 b/s! h4 |) R# {9 m  Q* u% Q4 i" ]9 b, G
Count of elements : 841$ s( M" f" O0 ^# l( P
Stream size : 20.8 KiB (0%)# {7 s- |- n4 H9 f) v
Language : English$ {( {$ S5 x6 L% n
Default : Yes; K9 `4 B( I9 n3 V6 ]. K' X5 b
Forced : No
) _) ]2 D$ D% u' t  a% U8 Z

6 {( T! V! R+ j4 `6 h) I( R
6 |1 [) _5 U, q

長夜危機. MKV.torrent

38.76 KB, 下載次數: 31

回復樓主 親!! 下午好,中午養足了精神嗎?讓我們一起渡過下午茶時間,WK有您更精彩!

 分享同時學會感恩,一句感謝的話語,就是最大的支持!  歡迎交流討論
您需要登錄後才可以回帖 登錄 | 立即注册

本版積分規則

c重要聲明:本論壇是以即時上載言論的方式運作,WK論壇對所有言論的真實性、立場及版權等,不負任何法律責任。而一切言論只代表發佈者個人意見,並非本網站之立場,讀者及用戶務必自行判斷內容之真實性。 由於本論壇受到「即時上載言論」運作方式所規限,故不能完全監察所有言論,若讀者及用戶發現有內容出現「真實性、立場及版權」等問題,請聯絡我們:[email protected]論壇有權刪除任何言論(刪除前或不會作事先警告及通知)| SiteMap[網站地圖]

發表新帖 返回頂部